Index Of Radiohead Flac

OK Computer OKNOTOK 1997 2017. thanks for more links again, bluewater. #85 THE WHITE STRIPES - The Forum, London 2001 (Flac) #84 THE SMITHS - Amsterdam 1984 (Flac) #83 PAUL WELLER - Berlin 2006 (Flac) #82 PINK FLOYD - The Best Of Tour '72 (Flac) #81 TELEVISION - Double Exposure (Flac) #80 RADIOHEAD - Bonnaroo Festival 2006 (Flac) #79 THE WHO - Fillmore East 1968 (Flac) #78 DAVID SYLVIAN - Hammersmith Odeon, London. Joy Division changed the face of music. I'd suggest we let them know who we are. wav" WAVE INDEX 01 00:00:00 TRACK 03 AUDIO TITLE "How Do You" PERFORMER "Radiohead" INDEX 01 00:00:00 TRACK 05 AUDIO TITLE "Inside My Head" PERFORMER. On our site you can download lossless music for free and without registration, favorite performers in flac format, for fans to listen to vinyl digitization - Vinyl rip, gourmets of the music world who want to listen to multi-channel. Special Mix for Amon Tobin by FLAC. 04-radiohead-desert_island_disk. After a whirlwind week in which Radiohead wiped their social media channels and released two new songs—"Burn the Witch" and "Daydreaming"—today Radiohead's website is also offering pre-orders for a CD version of the album that will ship on June 17 and a special edition vinyl/digital/etc. 99 in the UK and $11. Add to Bag Info. Quote from: spoon on 2011-03-28 15:37:44. Discover amazing music and directly support the artists who make it. RhOCK12(FLAC)-DEMS. ArtisteRadiohead. Jean-Michel Jarre - Oxygene flac download. cue) Quality: lossless Covers: Front Amount of tracks: 19 Size RAR: ~ 485. Index Of Radiohead Flac. Artist: HammerFall Title Of Album: Live! Against The World Year Of Release: 2020 Label: Napalm Records Country: Sweden Genre: Heavy Metal,Power Metal Quality: Blu-ray 1080i Video: MPEG-4 AVC Video / 31913 kbps / 1080i / 29,970 fps / 16:9 / High Profile 4. The ultimate place to find and download great music in lossless format for freeenjoy!. Radiohead — Creep (Radio Edit) 03:53. Index Alphabétique. Stephen Warbeck - Shakespeare In Love (Zakochany Szeks7z. Tomasz Beksiński - In Memoriam {2015, FLAC}. Draconian - To Outlive The War (2001) FLAC. More Radiohead-flac available on the site. Radiohead - FLAC Radiohead - Collector's Edition (2009) Radiohead - Hail To The Thief [Collector's Edition] (2009) FLAC/22. flac 07 - Radiohead - Lucky. flac Halestorm - Scream. The Bends — Radiohead 85. Performer: Radiohead Album: OK Computer Label: Parlophone. Download for free Gydra - Cyborg EP. Radiohead - 27 5 94 The Astoria London Live flac download. DJ Ravine's Hardcore Trance Bootlegs Mix (UK HARDCORE) Hallelujah - HandsUp Dance Trance Bootleg MIX HQ 2012 ( L. Artist: Radiohead Title: 2+2=5 Year Of Release: 2004 Label: Red Devil [RD045-1/2] Genre: Brit Pop, Alternative/Indie Rock Quality: FLAC (tracks+cue, log) Total Time: 02:38:09 Total Size: 1. 00b: October 5 2013 at 23:00: Chris Rea - The Road To Hell (1989) 0. They were self-released as a double A-side 12-inch single on 21 September 2009 and as a download on 6 October 2009. High-resolution FLAC version of Radiohead's The King of Limbs album now available for download from 7digital. ” The reasoning is pretty simple. (FM broadcast FLAC) David Bowie - Eternal Life Elysee Montmartre, Paris, France / 16th October 1999 Label: Ultimate Sound US 07 Audio Sour. 03 Radiohead - Karma Police. When internet radio was introduced traditional radio stations were quick to make their broadcasts available although the initial quality was often poor. Radiohead The Best Of 2CD FLAC 토렌트하자 공유. flac Halestorm - Scream. Quality: FLAC 16 bit / 44. by Radiohead. Треклист (12). [SACD-R][OF] Various Artists - Telarc Super Audio CD Sampler - 1999 (Jazz). LP CD MP3 FLAC. Music Downloads 320kbps Tracks DJ Trax Songs mp3 remix, mix rmx, Trance Dance Techno House Electro Psychedelic Duch-House Private FTP Server Member Vip Users ftp. Radiohead - Burn the Witch - 2016, FLAC 24/48 01 - Burn the Witch - 3:41. audiotester, can test a whole tree of FLAC files for errors and corruption; Mac OS X. flac Heart - What About Love. rar) of a single artist, as well as albums with various artists such as the Now series of compilations (with VA tag); lossless is a class of data compression algorithms that allows the exact original data to be reconstructed. Download or stream the entire Metallica live concert catalog. flac Iron Maiden - Fear Of The Dark. This is the only time I had to use WinZip, so thanks again for helping me with this heavy flac series of Radiohead! WorldofBootleg likes this. For their part, 7digital says that the 24-bit FLAC codec for Radiohead “is the first step in 7digital’s move towards higher quality digital music downloads. flac 07 - Radiohead - Lucky. Flac bootlegs. Radiohead - Tinker Tailor Soldier Sailor Rich Man Poor Man Beggar Man Thief. It performs FLAC conversion, which is designed especially for audio files. flac Grimes - Oblivion. com Password. Radiohead – Radiohead: Deep Cuts (2019) Radiohead – Essentials (2019) Radiohead – Greatest Songs (2018) Radiohead – OK Computer OKNOTOK 1997 2017 (2017) Radiohead – I Promise (2017) Radiohead – The King of Limbs Live from the Basement (2011) Radiohead – Pablo Honey (1993) Radiohead – Amnesiac (2001) Radiohead – Tkol Rmx. Peter Cox - Ain't Gonna Cry Again Various - Into The Darkness Volume 2 Boys Like Girls - Be Your Everything Various - The Sound Of Young America Vol. net to listen. LP CD Deluxe LP. Детали релиза : Radiohead (1992-2008) [FLAC (tracks +. Genre : R&B, Soul Release Date : 2020 Format : Flac (tracks) Quality : Lossless. check new links soon. flac Heart - Alone. cue) Quality: lossless Covers: Front Amount of tracks: 19 Size RAR: ~ 485. Bandwidth and storage costs are getting smaller for online stores as those stores grow and better leverage server infrastructure. Zephyr - Voices Unbound wav 5. Index of Composers. 00b: October 5 2013 at 23:00: Deejay Parade Vol2 & Vol3 [Flac] 0. New Albums. Windows, Mac OS, Linux. Come and download radiohead flac absolutely for free. Radiohead - Burn the Witch - 2016, FLAC 24/48 01 - Burn the Witch - 3:41. Thom's debut solo album was released in 2006. Style: Prog Related Country: United Kingdom Format: FLAC Size: 242 Mb. All CDs are in FLAC and MP3 format. Stephen Warbeck - Shakespeare In Love (Zakochany Szeks7z. DEAD AIR SPACE. 6MHz/128fs Download DSD (Quad Rate) 11. Classic Pop Hits. The King Of Limbs. to is the largest czech cloud storage. Agusa - Ekstasis - Live in Rome (2018). The band took time off in 2010, which allowed Yorke to form a band called Atoms for Peace with producer Godrich and Flea from the Red Hot Chili Peppers. If you’ve downloaded an album in. Radiohead - 2003-08-03 Summer Sonic Festival, Tokyo, Chiba Marine Stadium, Chiba, Japan (SBD) [email protected] kbps MG John Lennon - Listen To This (1974) Flac [3cd] The Ultimate Walls & Bridges Boxset Various Dates & Locations Mostly Excellent Studio Quality (Except Some Of The Demos) FLAC - Rolling Stones live in Brussels 1973 - 2CD. 06-radiohead-glass_eyes. (Alternative Rock, Soundtrack, Industrial, Nu Metal) [LP] [24/192] Queen Of The Damned (Music From The Motion Picture) - 2002 [2019], FLAC. For their part, 7digital says that the 24-bit FLAC codec for Radiohead “is the first step in 7digital’s move towards higher quality digital music downloads. From the library main page and the RH_ASK. Super MP3 download always brings the hottest songs of 14 categories, from choose specific edition of live, piano, guitar. flac" WAVE TRACK 08 AUDIO TITLE "Within You Without You" INDEX 01 00:00:00 TRACK 09 AUDIO TITLE "When I'm. flac 04 - Radiohead - Exit Music. Radiohead / OK Computer OKNOTOK 1997 2017 180 Gram Vinyl Record BOXED EDITION - 3 LPs + Books + Cassette AXLR 408680 FLAC 96kHz/24bit Download XUNI24593F96 $21. TRACK 06 AUDIO TITLE "She's Leaving Home" INDEX 01 13:34:53 TRACK 07 AUDIO TITLE "Being For The Benefit Of Mr Kite" INDEX 01 17:08:24FILE "SPLHCB_2. FLAC albums related Radiohead - The Bends: Radiohead - OK Computer OKNOTOK 1997 2017 flac download. In Rainbows. The members of Radiohead self-produced the album with Nigel Godrich, an arrangement that the band has used on all of their subsequent albums to date. альбом включает в себя следующие треки: 001. Festival Hall, Osaka + Budokan, Tokyo, Japan - 1972. Maximum Radiohead (The Unauthorised Biography Of Radiohead). flac INXS - Need You Tonight. Index of flac floyd. Various - Nova Classics OnetoTen download mp3 Radiohead - A Moon Shaped Pool. 2016 17:12) Музыка в высоком качестве (Lossless: Flac, Ape, Wavpack). flac Interpol - All the Rage Back Home. 2, Area 51, Hilden, Germany - 02 & 03. Do diskuze se mohou zapojit pouze registrovaní uživatelé. Sold by Fulfillment Express US and ships from Amazon This album provides a nice overview of what Radiohead has done, with its chart-topping singles included. Catalog #: CD 27000 001010 D Style: Singer, Songwriter, Liedermacher Year: 2009 Format: FLAC (tracks +. (Alternative Rock, Soundtrack, Industrial, Nu Metal) [LP] [24/192] Queen Of The Damned (Music From The Motion Picture) - 2002 [2019], FLAC. Files: 06 - Radiohead - The Best Of. 11-radiohead-true_love_waits. AlbumOK Computer OKNOTOK 1997 2017. 9 X Track quality 100. Makrill - The xx Intro (Remix) -2017- 002. vrijdag 10 november 2017. Kredit umožní i stahování neomezenou. Radiohead toured in support of In Rainbows into 2009, during which time EMI released Radiohead: The Best Of in June of 2008. Official site flacattack lossless-music - music in high quality lossless FLAC, APE, WAV only electronic genres like hardcore, gabber, hardstyle, drum and bass, dubstep, techno - easy to browse and download. Formé en 1985, il est composé de Thom Yorke (chant, guitare et piano), des frères Jonny Greenwood (guitare, divers autres instruments, arrangements) et Colin Greenwood (basse), Ed O'Brien. Newlife IVF is one of the leading IVF clinics in Greece providing the full range of fertility investigations and treatments, including a highly successful egg donation programme. Radiohead are an English rock band formed in Abingdon, Oxfordshire, in 1985. 99 in the UK and $11. Artist: Radiohead Title: Discography Year: 1992-2017 Genre: Rock, Alternative Rock, Electronic Duration: Rip type: Image +. Index of led zeppelin flac Index of led zeppelin flac. Style: Drum 'n Bass Quality: MP3 320 kbps | FLAC Lossless Release date: 19/10/2015 Label: Eatbrain Cat: EATBRAIN020. Somewhere I Belong. Pablo Honey. 13,850,715 views, added to favorites 121,678 times. New Albums. Have you freed your sound today? I needed to have a bunch of jello boxes fall on someone head for a film I was putting together. Download Radiohead-FLAC Fast and for Free. flac INXS - Need You Tonight. The FLAC project maintains the format and provides a reference encoder/decoder and input plugins for several popular audio players. Radiohead Jam With Radiohead (6. flac 03 - Radiohead - The Bends. I wish I liked Radiohead more (always bought the early records, never really dug deep) but this leak is fascinating. flac 06 - Radiohead - My Iron Lung. Both WAV and FLAC work if I downmix the file to 16-bit/44. Radiohead - 2003-08-03 Summer Sonic Festival, Tokyo, Chiba Marine Stadium, Chiba, Japan (SBD) [email protected] kbps MG John Lennon - Listen To This (1974) Flac [3cd] The Ultimate Walls & Bridges Boxset Various Dates & Locations Mostly Excellent Studio Quality (Except Some Of The Demos) FLAC - Rolling Stones live in Brussels 1973 - 2CD. Best of Radiohead flac results 1-5 from 5. to je v Čechách a na Slovensku jedničkou pre slobodné zdieľanie súborov. Index of led zeppelin flac. All CDs are in FLAC and MP3 format. Keep Time Shed Radiohead The King of Limbs Mp3 Download ::Hurt is old news, why would you shed new tears. Bandwidth and storage costs are getting smaller for online stores as those stores grow and better leverage server infrastructure. "The Radiohead album, produced by Nigel Godrich, was recorded in 24-bit digital audio and it's great listeners will now be able to download and hear the album in the quality it. German robotics firm Festo has unveiled a robotic spider that can walk and roll. Produced by John Leckie and partly engineered by Nigel Godrich (future Radiohead producer) – except "How Does it Feel to Feel?" by Black Crowes producer George Drakoulias – and featuring a guest appearance on keyboards from Jon Lord of Deep Purple, the album was split between songwriters Gardener and Bell, with the former's songs making up. - In case the Audio Material is out of print, hard-to-find, or inaccessible in your country, you possess an authentic version of the album as standard CD - You're previewing/sampling the musical files before purchasing the Audio Material. Radiohead's Own Studio. Catalog #: 7243 8 55229 2 5, CDNODATA 02 Style: Alternative Rock Year: 1997 Format: FLAC (image +. Style: Prog Related Country: United Kingdom Format: FLAC Size: 242 Mb. Here you can download full discography: all albums of Radiohead in MP3 format (320 kbps). Rock n' Roll Baby Lullaby Ensemble — Creep (Lullaby Arrangement of Radiohead) 04:30. torrentRadiohead The Best Of 2CD FLAC 2008 AUDIO Hash : eF2gpklG26s6ld6r3cM1최신미드 토렌트도 토렌트가가 입니다. 간편한 마그넷 다운로드는 보고보고 입니다. A browser-based ABX test comparing lossless and lossy music samples based on the test by the streaming service Tidal. 11-radiohead-true_love_waits. flac Heart - What About Love. Rush July 9, 2015 Kansas City, Missouri, USA Sprint Center "R40KC" Xavel Silver Masterpiece Series XAVEL-SMS-053 Japanese 3 CD set Contrast clause: The material in this torrent is different than any other recording of Kansas City July 9, 2015 known to appear on the tracker. ly for Joomla Sur. A browser-based ABX test comparing lossless and lossy music samples based on the test by the streaming service Tidal. 99, you get three downloads: FLAC24, FLAC16, AAC320k. Детали релиза : Radiohead (1992-2008) [FLAC (tracks +. 3 : FLAC (stands for Free Lossless Audio Codec) is a compression tool which can handle FLAC, OGG and WAV formats. Pablo Honey. Come and download radiohead flac absolutely for free. 1 (пятиканалка). A Radiohead bootleg CD containing acoustic recordings. flac Heart - What About Love. 8MHz/64fs Download DSD Multichannel 2. Clive Deamer (2011 - present) Drums, percussion Clive Deamer is a session musician, who has drummed for Radiohead, Portishead, Jeff. I have heard the rips and to me it is. Download FLAC 1. Pink Floyd Flac. LP CD Deluxe LP. Essential data is lost when you listen to music via MP3 files because of the lossy compression that makes these files smaller. - Creep - Vintage Postmodern Jukebox Radiohead Cover ft Haley Reinhart - Radiohead - Creep (Live) - Creep-Radiohead Cover - Creep - Radiohead - Creep (Radiohead Cover) - Creep - Daniela Andrade. Daily updates of the music database. Radiohead — Paranoid Android (Remastered) (Ok Computer (Oknotok 1997-2017) 2017). 6MHz/128fs Download DSD (Quad Rate) 11. Flac bootlegs. альбом включает в себя следующие треки: 001. You can play FLAC files directly on various supporting devices, without decompressing. Some months ago I found a website with some legitim radiohead albums in flac but can't remember the link Any one knows ?. cue) Quality: lossless Covers: Front Amount of tracks: 19 Size RAR: ~ 485. Index Alphabétique. See more ideas about Radiohead, Radiohead songs, Songs. that's odd, I purchased an mp3 download last year of In Rainbows Disc 2 also b/c I didn't want to resort to a torrent. "The Radiohead album, produced by Nigel Godrich, was recorded in 24-bit digital audio and it's great listeners will now be able to download and hear the album in the quality it. OK Computer OKNOTOK 1997 2017. Discography flac. 3 : FLAC (stands for Free Lossless Audio Codec) is a compression tool which can handle FLAC, OGG and WAV formats. Index of Composers. Upload, share, search and download for free. lossless bootleg downloads. 3 Nirvana - From The Muddy Banks Of The Wishkah / Live!. Radiohead - OK Computer (1997) FLAC / MP3 Artist: Radiohead. cue) Bitrate: lossless Covers: full (600 DPI) Amount of tracks: 10 Size ZIP: ~ 504 mb Upload: nitroflare. Thom Yorke and Jonny Greenwood of Radiohead 2017-08-20 Arena Sferisterio-Macerata-Italy [FLAC] RADIOHEAD – 2017-04-11 Santa Barbara Bowl, Santa Barbara, CA US – FLAC Radiohead – 2017-04-18 – Greek Theater, Berkeley CA FLAC. I wish I liked Radiohead more (always bought the early records, never really dug deep) but this leak is fascinating. Index of flac pink floyd Index of flac pink floyd. Tomasz Beksiński - In Memoriam {2015, FLAC}. 03 Radiohead - Little By Little. Chicane - Far From The Maddening Crowds 2007 [FLAC]-JDR: 0. Radiohead / OK Computer OKNOTOK 1997 2017 180 Gram Vinyl Record BOXED EDITION - 3 LPs + Books + Cassette AXLR 408680 FLAC 96kHz/24bit Download XUNI24593F96 $21. Pink Floyd Flac. Artist : Radiohead Album : Discography (Studio albums) Year : 1993 - 2016 Genres : Art rock alternative rock electronica experimental rock Audio format albums : FLAC Lossless Size : 4. Keep Time Shed Radiohead The King of Limbs Mp3 Download ::Hurt is old news, why would you shed new tears. thanks for more links again, bluewater. All links. Format: mp3, flac MP3. Forums > Audio Mania > Albums (lossless) >. For their part, 7digital says that the 24-bit FLAC codec for Radiohead “is the first step in 7digital’s move towards higher quality digital music downloads. Radiohead [ˌɹeɪdioʊˈhɛd] est un groupe de rock britannique, originaire d'Abingdon, dans l'Oxfordshire. Radiohead-OK Computer (1997) 24-192 Vinyl FLAC » audio music lossless. Lossless FLAC o MP3 High Quality. - Creep - Vintage Postmodern Jukebox Radiohead Cover ft Haley Reinhart - Radiohead - Creep (Live) - Creep-Radiohead Cover - Creep - Radiohead - Creep (Radiohead Cover) - Creep - Daniela Andrade. The highest quality of audio that you can download is flac. ‘No Surprises’ is taken from ‘OK Computer’ out on XL Recordings. 8MHz/64fs Download DSD Multichannel 2. Last modified. Hmm, I agree with some of the aforementioned tracks, especially Let Down and Exit Music. Wide choice fresh albums, various artists compilations. 8 % Track quality 99. Creep Radiohead. 2, Area 51, Hilden, Germany - 02 & 03. flac Interpol - All the Rage Back Home. torrent name. 05 Radiohead - Lotus Flower. vrijdag 10 november 2017. The album will be available from 7digital online stores across 32 territories including the UK, US, Canada and numerous European countries. Basically these discs where compiled as I was thinking similar thoughts here Dysan. Label: Graf Zeppelin - LZSC-027. The ultimate place to find and download great music in lossless format for freeenjoy!. Сообщение №170 (28. Kumpulan Music Flac. 03 Radiohead - Little By Little. An official online resource containing everything we, Radiohead, have ever done, more or less. flac Iron Maiden - Fear Of The Dark. Artist: Radiohead. Have you freed your sound today? I needed to have a bunch of jello boxes fall on someone head for a film I was putting together. Coldplay is became a pop music band step by step which means their sounds are (展开). also Magnatude. Get Behind Me Satan. Download FLAC 16bit, 24bit Music of all genres and styles. wav" WAVE INDEX 01 00:00:00 TRACK 03 AUDIO TITLE "How Do You" PERFORMER "Radiohead" INDEX 01 00:00:00 TRACK 05 AUDIO TITLE "Inside My Head" PERFORMER. Add to Bag MP3. From the library main page and the RH_ASK. High quality Radiohead MP3 downloads from 7digital United States. [SACD-R][OF] Various Artists - Telarc Super Audio CD Sampler - 1999 (Jazz). Michael Pan — pop-splits - Radiohead - Creep 01:31. flac 07 - Radiohead - Lucky. OK Computer OKNOTOK 1997 2017. ©2020 91flac. - In case the Audio Material is out of print, hard-to-find, or inaccessible in your country, you possess an authentic version of the album as standard CD - You're previewing/sampling the musical files before purchasing the Audio Material. com at a fixed price of £6. 00b: October 5 2013 at 23:00: Chris Rea - The Road To Hell (1989) 0. : Cue, Log, Covers, Artwork, Hi-Res Audio, DVDs, eBooks, Desktop Wallpaper. flac" WAVE TRACK 08 AUDIO TITLE "Within You Without You" INDEX 01 00:00:00 TRACK 09 AUDIO TITLE "When I'm. For their part, 7digital says that the 24-bit FLAC codec for Radiohead “is the first step in 7digital’s move towards higher quality digital music downloads. - Angel Of Darkness (Video Mix). Made in UK. Maximum Radiohead (The Unauthorised Biography Of Radiohead). Skip to content. Zephyr - Voices Unbound wav 5. Bandwidth and storage costs are getting smaller for online stores as those stores grow and better leverage server infrastructure. January 2008 EAC extraction logfile from 4. rar) of a single artist, as well as albums with various artists such as the Now series of compilations (with VA tag); lossless is a class of data compression algorithms that allows the exact original data to be reconstructed. 208 files 2. Hi-res audio blows MP3s and AAC files out of the water. flac Iron Maiden - Fear Of The Dark. flac 07 - Radiohead - Lucky. Music Downloads 320kbps Tracks DJ Trax Songs mp3 remix, mix rmx, Trance Dance Techno House Electro Psychedelic Duch-House Private FTP Server Member Vip Users ftp. The album will be available from 7digital online stores across 32 territories including the UK, US, Canada and numerous European countries. Index Of Flac Floyd. Year: 1997 Country: England FLAC Format: 16 Bits / 44. In case of lack of purchase, you will permanently delete the files within. Radiohead — There There (The Boney King Of Nowhere. Radiohead Complete Studio Discography [FLAC] » audio music lossless. Download Radiohead-FLAC Fast and for Free. Style: Breakbeat, Hardcore Quality: FLAC Release date: 12/11/2018. Here you can download full discography: all albums of Radiohead in MP3 format (320 kbps). 5 includes support for FLAC Internet Radio. flac 06 - Radiohead - My Iron Lung. Skip to content. 06-radiohead-glass_eyes. 라디오헤드 RADIOHEAD. Calexico/Iron & Wine- Sixteen Maybe Less. The following is a list of musical works that have been released legally in a stem format for public use. The members of Radiohead self-produced the album with Nigel Godrich, an arrangement that the band has used on all of their subsequent albums to date. January 2008 EAC extraction logfile from 4. 0 beta 3 from 29. OK Computer — Radiohead 76. Both WAV and FLAC work if I downmix the file to 16-bit/44. torrent name. Galahad - Seas of Change (2018). 1 (пятиканалка). Both WAV and FLAC work if I downmix the file to 16-bit/44. Quality: FLAC 16 bit / 44. USA on June 27, 1972. flac Hush 'n Rush - Train of fools. Скачай Radiohead Ill Wind (2019) и Radiohead Lift (2017). Radiohead stand for the 90's alternative music coldpay stands for 00's pop band music. From the library main page and the RH_ASK. ” The reasoning is pretty simple. flac Ian Anderson - Doggerland. A ray of human warmth melting a 10-year, post-‘OK Computer’ ice age, ‘In Rainbows’ was a miraculous reminder of why we all fell in love with Radiohead in the first place: arcing melodies. We recommend to proceed at heavy-music. vrijdag 10 november 2017. 03 Radiohead - Little By Little. Pink Floyd Flac. Bootleg recordings of the gig have been appearing more or less continuously since the program was first broadcast. (6CD · DTB · lossless FLAC Radiohead - 1996-05-27 This blog is merely an index with public. 4 Clubbers - Hymn (Radio Edit). Daily updates of the music database. 00b: October 5 2013 at 23:01: Demis Roussos - Greatest Hits (1983) [FLAC] (Philips 1971-1980) 0. OK computer. Nahrávejte, sdílejte a stahujte zdarma. Rock n' Roll Baby Lullaby Ensemble — Creep (Lullaby Arrangement of Radiohead) 04:30. Maximum Radiohead (The Unauthorised Biography Of Radiohead). FLAC Stereo 610 Kbps MP3 320 Kbps. Disc 2: 01 Borderline 02 (you can do)everything 03 We are 04 C. Lossless & Hi-Res Music Download. Lincoln Love Log-The Land of Illinoise-CDR-FLAC-2002-GRAVEWISH Misery Index Commit Suicide-Misery Index Commit Suicide-(MOSH 313CD)-SPLIT-CD-FLAC-2005-WRE Morbius-Sojourns Trough the Septiac-CD-FLAC-2005-GRAVEWISH Morbus-Milenio-ES-Remastered-CDR-FLAC-2003-GRAVEWISH Morbus-The Beginning of the Lascivious Addiction-ES-CD-FLAC-2005-GRAVEWISH. Radiohead emerged from the shadow of '90s Brit-pop with a sound that was moody, melodic and explosive; with roots planted firmly in both alternative culture and the art-rock legacy. Cinnamon Girl 03. Radiohead's latest album, The King of Limbs, is released today by 7digital as a high-resolution 24-bit FLAC file. Chicane - Far From The Maddening Crowds 2007 [FLAC]-JDR: 0. 04-radiohead-desert_island_disk. 99 in the UK and $11. By admin flac-music 2020, R&B, Soul 0 Comments. Essential data is lost when you listen to music via MP3 files because of the lossy compression that makes these files smaller. The song was initially unsuccessful, but it became a worldwide hit several months after the release of their debut album, Pablo Honey (1993). to is the largest czech cloud storage. Zephyr - Voices Unbound wav 5. Have you freed your sound today? I needed to have a bunch of jello boxes fall on someone head for a film I was putting together. Index of Composers. , Radiohead, and numerous others. Jean-Michel Jarre - Oxygene flac download. flac INXS - Need You Tonight. LosslessClub. Rock music flac free download. Genre : R&B, Soul Release Date : 2020 Format : Flac (tracks) Quality : Lossless. flac James Brown. The statistical cut-off typically used to decide whether something is 'real' - in this case, your ability to tell the difference between lossy and lossless music - is set so there is a 5. Bootleg recordings of the gig have been appearing more or less continuously since the program was first broadcast. Pink Floyd - Ummagumma [The High Resolution Remasters, 4CD, Deluxe Edition] (2019) FLAC. Toto - 40 Tours Around The Sun (Live) (2019) [FLAC 24bit/96kHz] Tom Petty And The Heartbreakers - Through The Cracks (2015) [FLAC 24bit/44,1kHz] Tom Petty And The Heartbreakers - Nobody’s Children (2015) [FLAC 24bit/44,1kHz] Tom Petty - The Best Of Everything - The Definitive Career Spanning Hits Collection 1976-2016 (2019) [FLAC 24bit/96kHz]. We use cookies for various purposes including analytics. Coldplay is became a pop music band step by step which means their sounds are (展开). Radiohead - Tinker Tailor Soldier Sailor Rich Man Poor Man Beggar Man Thief. Radiohead Complete Studio Discography [FLAC]. 5% and normalized to -1. Disc 2: 01 Borderline 02 (you can do)everything 03 We are 04 C. Kredit umožní i stahování neomezenou. World of Dylan Bootlegs vrijdag 4 mei 2018. High quality Radiohead MP3 downloads from 7digital United States. S kreditom aj neobmedzenou. 1 (пятиканалка). Lossless FLAC o MP3 High Quality. com Password: without a password. Flac bootlegs. The band consists of Thom Yorke (vocals, guitar, piano, keyboards), brothers Jonny Greenwood (lead guitar, keyboards, other instruments) and Colin Greenwood (bass), Ed O'Brien (guitar, backing vocals) and Philip Selway. Radiohead stand for the 90's alternative music coldpay stands for 00's pop band music. Код: Exact Audio Copy V0. Godrich has also worked extensively with Radiohead singer Thom Yorke on his solo material, and is a member of the bands Atoms for Peace and Ultraísta. Album: OK Computer. August 31, 2020: Explore the download and CD catalog below or stream the entire Live Metallica concert catalog on-demand with a nugs. Style: Drum 'n Bass Quality: MP3 320 kbps | FLAC Lossless Release date: 19/10/2015 Label: Eatbrain Cat: EATBRAIN020. flac Heart - Barracuda. Last modified. 1kHz FLACs) have peak limiting/RMS levels identical to the previous 16 bit. - Creep - Vintage Postmodern Jukebox Radiohead Cover ft Haley Reinhart - Radiohead - Creep (Live) - Creep-Radiohead Cover - Creep - Radiohead - Creep (Radiohead Cover) - Creep - Daniela Andrade. Radiohead. 5 includes support for FLAC Internet Radio. Nostalgie Махачкала. 16-bit FLAC; Preview OK Computer. (FM broadcast FLAC) David Bowie - Eternal Life Elysee Montmartre, Paris, France / 16th October 1999 Label: Ultimate Sound US 07 Audio Sour. ✔7 years2223 MB31. 03 Radiohead - Little By Little. flac 06 - Radiohead - My Iron Lung. Galahad - Seas of Change (2018). The song was initially unsuccessful, but it became a worldwide hit several months after the release of their debut album, Pablo Honey (1993). On Monday 7digital debuted Radiohead's "King of Limbs" in high definition 24-bit FLAC format, the first for a major artist in this premium format. Index images and define metadata. flac 04 - Radiohead - Exit Music. Music lossless for lovers of good sound. Bandwidth and storage costs are getting smaller for online stores as those stores grow and better leverage server infrastructure. Index of Composers. In Search of Space — Hawkwind 84. flac Heart - Alone. Index of flac pink floyd Index of flac pink floyd. It's their most famous song, apart from maybe Karma Police. Catherine’s Court. com you can download lossless music in popular formats FLAC, APE, ALAC, MP3, M4A. It's by Radiohead, from the album Pablo Honey. 2016 17:12) Музыка в высоком качестве (Lossless: Flac, Ape, Wavpack). 03 Radiohead - Little By Little. There are a number of reasons for wanting to do this, the most common is to create individual MP3s of each track, rather than one long MP3 of the entire album. Misery Index - Traitors download mp3. Here at Allflac. Pink Floyd Flac. Index Of Flac. Send them an email saying what you like and what you don't; some of these stations FLAC capabilities are "trial. 5 % Extraction speed 3. i've been checking some of these stores for their classical music collections, partially out of professional interest, and it's delightful to find a lot of old music there - by "old" i don't mean something by mozart but something truly old, like some medieval/renessaince stuff that isn't very easy to find from any common record stores. FLAC - Free Lossless Audio Codec. flac 04 - Radiohead - Exit Music. Download The Beatles - 1963: BBC Sessions (2007) [Flac] or any other file from Music category. i've been checking some of these stores for their classical music collections, partially out of professional interest, and it's delightful to find a lot of old music there - by "old" i don't mean something by mozart but something truly old, like some medieval/renessaince stuff that isn't very easy to find from any common record stores. Add to Bag MP3. Keep Time Shed Radiohead The King of Limbs Mp3 Download ::Hurt is old news, why would you shed new tears. 6MHz/128fs Download DSD (Quad Rate) 11. FLAC files are lossless and with a HQ pair of headphones, sound SO MUCH BETTER than streaming and IMO CD's. Jean-Michel Jarre - Oxygene flac download. German robotics firm Festo has unveiled a robotic spider that can walk and roll. Flac bootlegs Madalas na pagkahilo, morning sickness o pagsusuka, biglaang pagbabago sa mood, pagbagsak o pagbigat ng timbang, paghahanap ng kakaibang kombinasyon… Media. Flacon extracts individual tracks from one big audio file containing the entire album of music and saves them as separate audio files. Album: OK Computer. I downloaded it last night and it plays back great in Foobar2000. Some months ago I found a website with some legitim radiohead albums in flac but can't remember the link Any one knows ?. to is the largest czech cloud storage. [$] MediaMonkey can organize, encode, decode, edit tags, and rip to FLAC and other formats. S kreditom aj neobmedzenou. I'd suggest we let them know who we are. cue), 24 Bit/96 kHz, оцифровка винила Битрейт аудио: Lossless. Rock n' Roll Baby Lullaby Ensemble — Creep (Lullaby Arrangement of Radiohead) 04:30. flac 09 - Radiohead - No. Radiohead - The Best Of (2008) FLAC Soup Posted by peaSoup in Music > Lossless. audiotester, can test a whole tree of FLAC files for errors and corruption; Mac OS X. 13,850,715 views, added to favorites 121,678 times. United States. Nahrávajte, zdieľajte a sťahujte zadarmo. Сообщение №170 (28. 5 % Extraction speed 3. Which band is universe than another? from my point of view, Radiohead is more attractive. dodie feat. 11-radiohead-true_love_waits. A-1 Mix Radio. More Radiohead-flac available on the site. thanks for more links again, bluewater. flac INXS - Need You Tonight. FLAC albums related Radiohead - The Bends: Radiohead - OK Computer OKNOTOK 1997 2017 flac download. They were only released as MP3 All shows that I'm going to share with you are in lossless format ( either. Radiohead. Format: mp3, flac MP3. flac" WAVE TRACK 08 AUDIO TITLE "Within You Without You" INDEX 01 00:00:00 TRACK 09 AUDIO TITLE "When I'm. HDtracks albums of all music genres and styles. 2 (Freeware) by Super MP3 Download Inc. When our time… our time is up. It is also available for new orders through www. audiotester, can test a whole tree of FLAC files for errors and corruption; Mac OS X. High quality Radiohead MP3 downloads from 7digital United States. , Radiohead, and numerous others. cue) Quality: lossless Covers: Front Amount of tracks: 19 Size RAR: ~ 485. Here are a few that are working for me. Radiohead - 2003-08-03 Summer Sonic Festival, Tokyo, Chiba Marine Stadium, Chiba, Japan (SBD) [email protected] kbps MG John Lennon - Listen To This (1974) Flac [3cd] The Ultimate Walls & Bridges Boxset Various Dates & Locations Mostly Excellent Studio Quality (Except Some Of The Demos) FLAC - Rolling Stones live in Brussels 1973 - 2CD. You can play FLAC files directly on various supporting devices, without decompressing. ArtisteRadiohead. Radiohead — Creep (Pablo Honey 1993). Rock music flac free download. flac Heart - What About Love. 01 Carmina Burana 02 I Don’t Know 03 Crazy Train 04 Believer 05 Mr. Radiohead – The King of Limbs (2011) FLAC. A Radiohead bootleg CD containing acoustic recordings. cue) Total Size: 38 GB. View first unread post View first unread post. Catalog #: 7243 8 55229 2 5, CDNODATA 02 Style: Alternative Rock Year: 1997 Format: FLAC (image +. com Password. Hit The Floor. Drill EP (1992). The album will be available from 7digital online stores across 32 territories including the UK, US, Canada and numerous European countries. 톰 요크, 조니 그린우드, 콜린 그린우드, 필립 셀웨이, 에드 오브라이언. 5% and normalized to -1. flac INXS - Need You Tonight. 0 beta 3 from 29. Style: Prog Related Country: United Kingdom Format: FLAC Size: 242 Mb. Arguably the closet thing to an "epic" produced during the Post-Punk era and widely regarded as The Cure's masterpiece, Disintegration was, paradoxically, both a huge commercial success (rare at the time for an "alternative" record) and a dark, introspective ode to ambivalent love and bittersweet despair. Radiohead released their first single, "Creep", in 1992. Only 19 left in stock - order soon. Keep Time Shed Radiohead The King of Limbs Mp3 Download ::Hurt is old news, why would you shed new tears. Agusa - Ekstasis - Live in Rome (2018). cue Format / Codec: FLAC Audio Bitrate: Lossless Ex. Radiohead - Creep. Index of flac floyd. High-Resolution Audio can replicate the whole range of sound that the artist created when recording the content. 03-19-2016, 04:11 AM. Come and download radiohead flac absolutely for free. 2004 - COM LAG (2plus2isfive) [EP] 2007 - In Rainbows [Limited Edition Discbox] 2007 - Radiohead Album Box Set 2007 - In Rainbows 2008 - Radiohead: The Best Of [Limited Edition] 2009 - Pablo Honey [Special Collector's Edition] 2009 - The. Also, you can play quality at 32kbps, 128kbps, 320kbps, 500kbps, view lyrics and watch more videos You are listening to the song House Of Cards by Radiohead, writer by Radiohead in album Live In Rainbows (aka Live In London 2008). Keep Time Shed Radiohead The King of Limbs Mp3 Download. Radiohead: collection | коллекция [17 releases / 19 editions, 1993-2009], FLAC (tracks+. Discography flac. 99 MB) Radiohead Jam With Radiohead Source title: Download Radiohead The King Of Limbs WEB 2011 LAST 10 MEDIAFIRE SEARCHES: radiohead flac, ride the blueberry, mashiro iro symphony win 7 theme v3, 2254598 st matthew passion bwv 244disc3. High Resolution Music. Everything in Its Right Place. to je v Čechách a na Slovensku jedničkou pro svobodné sdílení souborů. 13,850,715 views, added to favorites 121,678 times. Pink Floyd - The Dark Side Of The Moon [Virtual Surround] (1973/2011) FLAC. Radiohead have brought forward the digital release of their new album "The King Of Limbs" by 24 hours with the album now being sent to those who pre-ordered it earlier this week. Clive Deamer (2011 - present) Drums, percussion Clive Deamer is a session musician, who has drummed for Radiohead, Portishead, Jeff. Please note that the BBC retains copyright on the full programmes and only excerpts which the BBC have explicitly released under an open licence may be uploaded to Wikimedia Commons. Radiohead - Creep. Radiohead — There There (The Boney King Of Nowhere. Special Mix for Amon Tobin by FLAC. 2 (Freeware) by Super MP3 Download Inc. You might want to look up Reckoner, Knives Out, Jigsaw Falling Into Place, 2+2 = 5, and Faust Arp too. flac format, and it’s one big file, you can split it into multiple tracks (songs) via the. January 2008 EAC extraction logfile from 4. Discography flac. 5% and normalized to -1. flac 07 - Radiohead - Lucky. Breaking The Habit. Radiohead - Creep. Everything in Its Right Place. Don't worry if people are rude about you not knowing, you've gotta start somewhere. complete and uninterrupted). Style: Breakbeat, Hardcore Quality: FLAC Release date: 12/11/2018. 1 KHz (CD lossless) MP3 Format: 320 kbps. Musician/Band. flac 06 - Radiohead - My Iron Lung. ly for Joomla Sur. United States. com is a free search engine: flac, mp3, ogg and mp4. There are a number of reasons for wanting to do this, the most common is to create individual MP3s of each track, rather than one long MP3 of the entire album. Style: Prog Related Country: United Kingdom Format: FLAC Size: 242 Mb. Plus Minus +27. 208 files 2. 02 Radiohead - Morning Mr. Keep listening to Radiohead, they're great! Hope you like em. flac INXS - Original Sin. Super MP3 Download for Mac 4. Radiohead – The King of Limbs (2011) FLAC. flac James Brown. Index of pink floyd flac Index of pink floyd flac. Index Of Radiohead Flac in the right side of this page. Radiohead – The King of Limbs Live from the Basement (2011) Artist: Radiohead Album: The King of Limbs Live from the Basement Genre: Alternative rock Released: 2011 Format: FLAC / 24bit. "The Radiohead album, produced by Nigel Godrich, was recorded in 24-bit digital audio and it's great listeners will now be able to download and hear the album in the quality it. OK computer. Artist: James Levine, Wiener Philharmoniker Title: Mozart: The Symphonies Year Of Release: 2015 Genre: Classical Quality: FLAC (Tracks,cover) Total Time Artist: Bad Boys Blue Title: Discography Year Of Release: 1985-2015 Genre: EuroDisco Quality: FLAC (image+. We provide fast downloadable and reliable service for you. 02 Radiohead - Morning Mr. Скачать альбом Chilled Valentine's Day Collection в формате FLAC через торрент. Extreme Download Musique Autres Radiohead - OK Computer OKNOTOK 1997 2017 + [FLAC]. Lossless FLAC o MP3 High Quality. FLAC files are lossless and with a HQ pair of headphones, sound SO MUCH BETTER than streaming and IMO CD's. But it's obviously the weakest offering in a lineup of really, really good albums. flac 04 Halo (Dave Audé Club Remix). Index of led zeppelin flac. Music Downloads 320kbps Tracks DJ Trax Songs mp3 remix, mix rmx, Trance Dance Techno House Electro Psychedelic Duch-House Private FTP Server Member Vip Users ftp. Feel free to post any comments about this torrent, including links to Subtitle, samples, screenshots, or any other relevant information. flac 05 - Radiohead - Subterranean Homesick Alien. Mott — Mott the Hoople 77. wav" WAVE INDEX 01 00:00:00 TRACK 03 AUDIO. Radiohead Benicàssim 2002 - Aug 3, 2002 Aug 03 2002. Radiohead have proven themselves to be the driving forces behind alternative rock music. complete and uninterrupted). 05 Radiohead - Lotus Flower. Please report broken links. Radiohead – A Moon Shaped Pool (2016) [FLAC 24/48]. Radiohead OK computer Exit music (For a film). Index images and define metadata. 9 X Track quality 100.